Текущее время: 15 авг 2022, 00:33 • Часовой пояс: UTC + 3 часа
Сообщения без ответов | Активные темы

не показывают цифровые каналы 16:9

Начать новую темуОтветить на тему Страница 1 из 1 [ Сообщений: 3 ]
Версия для печати Пред. тема | След. тема
АвторСообщение
Сообщение Добавлено: 10 мар 2017, 14:58. Заголовок сообщения:  не показывают цифровые каналы 16:9
Зарегистрирован:
    10 мар 2017, 14:43
Сообщения: 2
У меня есть 2 канала на одной частоте DVB-C. Один канал показывает, другой нет.
Если сделать запись потока в файл, то видео можно просмотреть в Media Player Classic.
На нерабочем канале, на вкладке "DVB поток" в разделе "Статистика DVB демультиплексора" нет битрейта для видео и аудио. В программе Media Player Classic я сохранил свойства записанных видеофрагментов через "Файл - Свойства - MediaInfo".
Для нерабочего канала
Код:
General
ID                             : 4 (0x4)
Complete name                  : D:\Record\Video\FOX (170310-000137).ts
Format                         : MPEG-TS
File size                      : 4.42 MiB
Duration                       : 11s 832ms
Overall bit rate mode          : Variable
Overall bit rate               : 3 133 Kbps

Video
ID                             : 4092 (0xFFC)
Menu ID                        : 4090 (0xFFA)
Format                         : MPEG Video
Format version                 : Version 2
Format profile                 : Main@Main
Format settings, BVOP          : Yes
Format settings, Matrix        : Default
Format settings, GOP           : M=3, N=15
Format settings, picture struc : Frame
Codec ID                       : 2
Duration                       : 11s 560ms
Bit rate mode                  : Variable
Bit rate                       : 2 784 Kbps
Maximum bit rate               : 3 000 Kbps
Width                          : 720 pixels
Height                         : 576 pixels
Display aspect ratio           : 16:9
Frame rate                     : 25.000 fps
Standard                       : PAL
Color space                    : YUV
Chroma subsampling             : 4:2:0
Bit depth                      : 8 bits
Scan type                      : Interlaced
Scan order                     : Top Field First
Compression mode               : Lossy
Bits/(Pixel*Frame)             : 0.269
Time code of first frame       : 03:07:13:03
Time code source               : Group of pictures header
Stream size                    : 3.84 MiB (87%)

Audio
ID                             : 4093 (0xFFD)
Menu ID                        : 4090 (0xFFA)
Format                         : MPEG Audio
Format version                 : Version 1
Format profile                 : Layer 2
Codec ID                       : 3
Duration                       : 11s 832ms
Bit rate mode                  : Constant
Bit rate                       : 192 Kbps
Channel(s)                     : 2 channels
Sampling rate                  : 48.0 KHz
Compression mode               : Lossy
Delay relative to video        : -482ms
Stream size                    : 277 KiB (6%)
Language                       : Russian


Для рабочего канала
Код:
General
ID                             : 4 (0x4)
Complete name                  : D:\Record\Video\Техно 24 (170310-003744).ts
Format                         : MPEG-TS
File size                      : 2.09 MiB
Duration                       : 4s 935ms
Overall bit rate mode          : Variable
Overall bit rate               : 3 489 Kbps

Video
ID                             : 4061 (0xFDD)
Menu ID                        : 4060 (0xFDC)
Format                         : MPEG Video
Format version                 : Version 2
Format profile                 : Main@Main
Format settings, BVOP          : Yes
Format settings, Matrix        : Custom
Format settings, GOP           : M=3, N=12
Format settings, picture struc : Frame
Codec ID                       : 2
Duration                       : 4s 480ms
Bit rate mode                  : Variable
Bit rate                       : 3 123 Kbps
Maximum bit rate               : 15.0 Mbps
Width                          : 720 pixels
Height                         : 576 pixels
Display aspect ratio           : 4:3
Frame rate                     : 25.000 fps
Standard                       : PAL
Color space                    : YUV
Chroma subsampling             : 4:2:0
Bit depth                      : 8 bits
Scan type                      : Interlaced
Scan order                     : Top Field First
Compression mode               : Lossy
Bits/(Pixel*Frame)             : 0.301
Stream size                    : 1.67 MiB (80%)

Audio
ID                             : 4062 (0xFDE)
Menu ID                        : 4060 (0xFDC)
Format                         : MPEG Audio
Format version                 : Version 1
Format profile                 : Layer 2
Codec ID                       : 3
Duration                       : 4s 944ms
Bit rate mode                  : Constant
Bit rate                       : 192 Kbps
Channel(s)                     : 2 channels
Sampling rate                  : 48.0 KHz
Compression mode               : Lossy
Delay relative to video        : -320ms
Stream size                    : 116 KiB (5%)


Я вижу, что фрагменты отличаются полем "Display aspect ratio".
Отсюда вопрос: поддерживает ли программа BeholdTV каналы формата 16:9.
Профиль 
Сообщение Добавлено: 11 мар 2017, 02:18. Заголовок сообщения:  Re: не показывают цифровые каналы 16:9
Зарегистрирован:
    28 сен 2006, 05:01
Сообщения: 825
Откуда: Russia,Moscow
писал(а):
Отсюда вопрос: поддерживает ли программа BeholdTV каналы формата 16:9.

Это всё вопросы к используемым декодерам DVB потока.
У меня например выбран LAV Video Decoder и проблем с 16:9 нет.
Профиль WWW ICQ 
Сообщение Добавлено: 11 мар 2017, 15:07. Заголовок сообщения:  Re: не показывают цифровые каналы 16:9
Зарегистрирован:
    10 мар 2017, 14:43
Сообщения: 2
У меня тоже выбран LAV Video Decoder. А вы можете также записать фрагмент транспортного потока на своём рабочем канале 16:9 и выложить сюда его свойства, которые можно посмотреть в программе Media Player Classic ?
Профиль 
Показать сообщения за:  Поле сортировки:    
Начать новую темуОтветить на тему  Страница 1 из 1  [ Сообщений: 3 ]  
Кто сейчас на конференции
Сейчас этот форум просматривают: нет зарегистрированных пользователей и гости: 3
Вы не можете начинать темы
Вы не можете отвечать на сообщения
Вы не можете редактировать свои сообщения
Вы не можете удалять свои сообщения
Вы не можете добавлять вложения
Найти:  
Перейти: